<?xml version="1.0" standalone="no"?>
<!DOCTYPE svg PUBLIC "-//W3C//DTD SVG 1.1//EN" "http://www.w3.org/Graphics/SVG/1.1/DTD/svg11.dtd" >
<svg>
<metadata>
Created by FontForge 20110222 at Mon Mar  7 08:22:17 2011
 By www-data
Copyright [c] 2008 by ShyFoundry. All rights reserved. Freeware for personal use only. To purchase a commercial license, please visit our site at http://www.shyfoundry.com.
</metadata>
<defs>
<font id="SFGrandezza-Heavy" horiz-adv-x="917" >
  <font-face 
    font-family="SF Grandezza"
    font-weight="800"
    font-stretch="normal"
    units-per-em="1000"
    panose-1="2 0 9 3 0 0 0 0 0 0"
    ascent="800"
    descent="-200"
    x-height="521"
    cap-height="688"
    bbox="-69 -270 1479 958"
    underline-thickness="10"
    underline-position="-70"
    unicode-range="U+0021-2122"
  />
    <missing-glyph />
    <glyph glyph-name="percent" unicode="%" horiz-adv-x="947" 
d="M111 59l637 637l88 -89l-637 -635zM447 542c0 -103 -56 -146 -192 -146c-129 0 -192 39 -192 146c0 103 55 146 192 146c135 0 192 -44 192 -146zM884 125c0 -103 -55 -145 -192 -145s-193 42 -193 145c0 104 56 146 193 146c135 0 192 -43 192 -146zM331 548
c0 16 -11 24 -34 24l-93 -1c-16 -2 -25 -7 -25 -16c0 -40 2 -43 32 -43h87c29 0 33 9 33 36zM705 154h-64c-17 -1 -25 -7 -25 -16c0 -39 1 -43 32 -43h87c22 0 33 8 33 23c0 35 -1 36 -63 36z" />
    <glyph glyph-name="ampersand" unicode="&#x26;" horiz-adv-x="828" 
d="M667 447c-21 44 -90 66 -205 66h-75c-144 0 -216 -21 -216 -63c0 -41 73 -62 220 -62h375v-209c0 -9 -7 -23 -19 -42c-44 -66 -140 -91 -322 -91c-250 0 -362 52 -362 171c0 51 22 90 67 116c-45 26 -67 65 -67 117c0 126 109 171 354 171c232 0 320 -36 354 -147z
M342 280c-114 0 -171 -21 -171 -63c0 -46 40 -63 223 -63c180 0 234 5 264 46v79z" />
    <glyph glyph-name="quotesingle" unicode="'" horiz-adv-x="250" 
d="M81 479l-21 209h130l-21 -209h-88z" />
    <glyph glyph-name="parenleft" unicode="(" horiz-adv-x="375" 
d="M197 -103c-100 147 -134 260 -134 436s34 287 134 438h134c-108 -161 -143 -269 -143 -438s35 -276 143 -436h-134z" />
    <glyph glyph-name="parenright" unicode=")" horiz-adv-x="375" 
d="M313 333c0 -174 -37 -291 -135 -436h-134c108 160 144 267 144 436s-36 277 -144 438h134c102 -155 135 -268 135 -438z" />
    <glyph glyph-name="asterisk" unicode="*" horiz-adv-x="488" 
d="M298 406v-93h-108v93l-81 -47l-54 94l81 47l-81 47l54 94l81 -47v94h108v-94l81 47l54 -94l-80 -47l80 -47l-54 -94z" />
    <glyph glyph-name="plus" unicode="+" horiz-adv-x="500" 
d="M304 146h-108v133h-133v109h133v133h108v-133h134v-109h-134v-133z" />
    <glyph glyph-name="comma" unicode="," horiz-adv-x="250" 
d="M81 -103l-21 207h130l-21 -207h-88z" />
    <glyph glyph-name="hyphen" unicode="-" horiz-adv-x="500" 
d="M63 388h375v-109h-375v109z" />
    <glyph glyph-name="period" unicode="." horiz-adv-x="250" 
d="M63 104h125v-124h-125v124z" />
    <glyph glyph-name="slash" unicode="/" horiz-adv-x="447" 
d="M15 -55l299 821l118 -43l-300 -821z" />
    <glyph glyph-name="zero" unicode="0" 
d="M896 333c0 -235 -146 -353 -438 -353c-291 0 -437 118 -437 353c0 236 146 355 437 355c292 0 438 -119 438 -355zM771 333c0 165 -88 230 -313 230c-226 0 -312 -63 -312 -230c0 -164 89 -229 312 -229c224 0 313 65 313 229z" />
    <glyph glyph-name="one" unicode="1" horiz-adv-x="250" 
d="M63 688h125v-708h-125v708z" />
    <glyph glyph-name="two" unicode="2" horiz-adv-x="1000" 
d="M63 104c0 99 64 169 194 209c27 9 139 29 361 63c130 20 195 55 195 103c0 56 -95 84 -284 84c-236 0 -316 -17 -346 -84l-120 29c40 137 158 180 437 180c309 0 438 -62 438 -209c0 -99 -63 -166 -187 -202c-139 -22 -228 -35 -352 -54c-131 -20 -201 -60 -210 -119h749
v-124h-875v124z" />
    <glyph glyph-name="three" unicode="3" horiz-adv-x="993" 
d="M931 188c0 -155 -136 -208 -436 -208c-271 0 -400 51 -437 176l119 32c26 -60 104 -84 268 -84h138c149 0 223 28 223 84c0 62 -72 83 -288 83h-170v125h170c192 0 288 28 288 83c0 56 -93 84 -279 84c-56 0 -155 -1 -193 -5c-86 -11 -138 -37 -157 -78l-120 32
c40 133 153 176 436 176c305 0 438 -58 438 -209c0 -66 -30 -115 -90 -146c60 -31 90 -79 90 -145z" />
    <glyph glyph-name="four" unicode="4" horiz-adv-x="875" 
d="M688 104h-667v110l280 432h149l-271 -417h509v459h125v-708h-125v124z" />
    <glyph glyph-name="five" unicode="5" horiz-adv-x="994" 
d="M932 229c0 -158 -159 -249 -438 -249c-236 0 -380 65 -433 195l124 22c34 -65 113 -93 265 -93c111 0 178 3 215 8c94 18 142 56 142 117c0 83 -93 125 -279 125c-238 0 -319 -19 -347 -111l-121 19l60 426h770v-125h-661l-19 -130c73 31 168 46 284 46
c169 0 438 -41 438 -250z" />
    <glyph glyph-name="six" unicode="6" 
d="M896 229c0 -158 -159 -249 -438 -249c-291 0 -437 118 -437 353c0 236 146 355 437 355c200 0 335 -62 405 -185l-112 -54c-53 83 -133 114 -293 114c-182 0 -268 -39 -300 -136c77 35 177 52 300 52c174 0 438 -42 438 -250zM771 229c0 60 -45 99 -135 115
c-39 7 -108 10 -207 10c-162 0 -254 -29 -277 -88c16 -75 64 -123 144 -145c39 -11 112 -17 219 -17c177 0 256 37 256 125z" />
    <glyph glyph-name="seven" unicode="7" horiz-adv-x="833" 
d="M41 -20l583 583h-603v125h792v-113l-596 -595h-176z" />
    <glyph glyph-name="eight" unicode="8" horiz-adv-x="1000" 
d="M938 188c0 -146 -128 -208 -435 -208c-304 0 -440 63 -440 208c0 66 29 115 89 145c-60 31 -89 80 -89 146c0 147 128 209 437 209s438 -62 438 -209c0 -66 -30 -115 -90 -146c60 -31 90 -79 90 -145zM813 188c0 57 -81 79 -293 84c-222 0 -332 -28 -332 -84
s74 -84 222 -84h180c148 0 223 28 223 84zM813 479c0 56 -79 78 -285 84c-246 0 -340 -22 -340 -84c0 -55 74 -83 222 -83h180c148 0 223 28 223 83z" />
    <glyph glyph-name="nine" unicode="9" 
d="M896 333c0 -235 -146 -353 -438 -353c-200 0 -335 62 -405 184l113 53c53 -83 133 -113 292 -113c183 0 270 39 300 136c-76 -35 -175 -52 -300 -52c-169 0 -437 40 -437 250c0 209 269 250 437 250c292 0 438 -119 438 -355zM764 401c-15 74 -63 123 -143 145
c-39 11 -112 17 -219 17c-178 0 -256 -37 -256 -125c0 -96 100 -125 341 -125c162 0 254 29 277 88z" />
    <glyph glyph-name="colon" unicode=":" horiz-adv-x="250" 
d="M63 479h125v-125h-125v125zM63 104h125v-124h-125v124z" />
    <glyph glyph-name="semicolon" unicode=";" horiz-adv-x="250" 
d="M81 -103l-21 207h130l-21 -207h-88zM63 479h125v-125h-125v125z" />
    <glyph glyph-name="less" unicode="&#x3c;" horiz-adv-x="325" 
d="M60 333l94 188h121l-93 -188l93 -187h-121z" />
    <glyph glyph-name="equal" unicode="=" horiz-adv-x="500" 
d="M63 462h375v-108h-375v108zM63 313h375v-109h-375v109z" />
    <glyph glyph-name="greater" unicode="&#x3e;" horiz-adv-x="325" 
d="M50 146l94 187l-94 188h121l94 -188l-94 -187h-121z" />
    <glyph glyph-name="question" unicode="?" horiz-adv-x="994" 
d="M932 479c0 -94 -53 -155 -157 -185c-52 -15 -142 -23 -271 -23c-159 0 -239 -28 -239 -83v-42h-125c0 200 86 249 431 249c157 0 236 28 236 84s-95 84 -283 84c-238 0 -318 -19 -346 -85l-120 30c39 137 157 180 436 180c305 0 438 -58 438 -209zM140 104h125v-124h-125
v124z" />
    <glyph glyph-name="at" unicode="@" 
d="M896 333c0 -235 -146 -353 -438 -353c-291 0 -437 118 -437 353c0 236 146 355 437 355c292 0 438 -119 438 -355zM602 352c0 66 -37 86 -141 86c-119 0 -163 -31 -163 -122c0 -65 36 -87 141 -87c119 0 163 33 163 123zM634 542c-43 14 -101 21 -176 21
c-226 0 -312 -63 -312 -230c0 -164 89 -229 312 -229c75 0 134 7 176 21h-51l2 26c-41 -17 -92 -26 -152 -26c-159 0 -239 61 -239 183c0 156 91 234 273 234c61 0 111 -10 150 -28l2 28h15zM771 333c0 69 -17 121 -52 158l-30 -340c55 35 82 96 82 182z" />
    <glyph glyph-name="A" unicode="A" horiz-adv-x="867" 
d="M687 104h-507l-73 -124h-142l409 708h119l409 -708h-143zM251 229h364l-182 313z" />
    <glyph glyph-name="B" unicode="B" 
d="M854 188c0 -139 -139 -208 -416 -208h-375v708h372c279 0 419 -70 419 -209c0 -66 -30 -115 -89 -146c59 -30 89 -79 89 -145zM729 479c0 56 -75 84 -225 84h-316v-167h318c149 0 223 28 223 83zM729 188c0 55 -75 83 -226 83h-315v-167h318c149 0 223 28 223 84z" />
    <glyph glyph-name="C" unicode="C" horiz-adv-x="876" 
d="M864 164c-69 -122 -205 -184 -406 -184c-291 0 -437 118 -437 353c0 236 146 355 437 355c201 0 336 -62 405 -185l-112 -54c-50 81 -136 114 -293 114c-226 0 -312 -63 -312 -230c0 -164 89 -229 312 -229c157 0 243 32 293 113z" />
    <glyph glyph-name="D" unicode="D" horiz-adv-x="875" 
d="M854 333c0 -235 -146 -353 -437 -353h-354v708h354c291 0 437 -119 437 -355zM729 333c0 165 -88 230 -312 230h-229v-459h229c223 0 312 65 312 229z" />
    <glyph glyph-name="E" unicode="E" horiz-adv-x="833" 
d="M63 688h708v-125h-583v-167h583v-125h-583v-167h583v-124h-708v708z" />
    <glyph glyph-name="F" unicode="F" horiz-adv-x="792" 
d="M188 -20h-125v708h708v-125h-583v-167h583v-125h-583v-291z" />
    <glyph glyph-name="G" unicode="G" horiz-adv-x="918" 
d="M751 449c-51 82 -132 114 -293 114c-226 0 -312 -63 -312 -230c0 -164 89 -229 312 -229c147 0 224 22 273 84v83h-293v125h418v-416h-125v51c-68 -34 -159 -51 -273 -51c-291 0 -437 118 -437 353c0 236 146 355 437 355c200 0 335 -62 405 -185z" />
    <glyph glyph-name="H" unicode="H" 
d="M729 271h-541v-291h-125v708h125v-292h541v292h125v-708h-125v291z" />
    <glyph glyph-name="I" unicode="I" horiz-adv-x="250" 
d="M63 688h125v-708h-125v708z" />
    <glyph glyph-name="J" unicode="J" horiz-adv-x="808" 
d="M767 333c0 -258 -131 -353 -396 -353c-212 0 -324 61 -375 203l113 52c34 -96 104 -131 262 -131c199 0 271 47 271 229v355h125v-355z" />
    <glyph glyph-name="K" unicode="K" horiz-adv-x="875" 
d="M188 252v-272h-125v708h125v-274l473 274h250l-614 -355l614 -353h-250z" />
    <glyph glyph-name="L" unicode="L" horiz-adv-x="771" 
d="M63 688h125v-584h583v-124h-708v708z" />
    <glyph glyph-name="M" unicode="M" horiz-adv-x="1007" 
d="M819 422l-256 -442h-120l-255 442v-442h-125v708h115l325 -563l325 563h116v-708h-125v442z" />
    <glyph glyph-name="N" unicode="N" 
d="M188 501v-521h-125v708h112l554 -523v523h125v-708h-112z" />
    <glyph glyph-name="O" unicode="O" 
d="M896 333c0 -235 -146 -353 -438 -353c-291 0 -437 118 -437 353c0 236 146 355 437 355c292 0 438 -119 438 -355zM771 333c0 165 -88 230 -313 230c-226 0 -312 -63 -312 -230c0 -164 89 -229 312 -229c224 0 313 65 313 229z" />
    <glyph glyph-name="P" unicode="P" horiz-adv-x="875" 
d="M854 479c0 -139 -140 -208 -421 -208h-245v-291h-125v708h371c280 0 420 -70 420 -209zM729 479c0 56 -90 84 -269 84h-272v-167h319c148 0 222 28 222 83z" />
    <glyph glyph-name="Q" unicode="Q" 
d="M896 333c0 -136 -48 -233 -143 -290l68 -66l-89 -88l-107 107c-51 -10 -66 -11 -167 -16c-291 0 -437 118 -437 353c0 236 146 355 437 355c292 0 438 -119 438 -355zM771 333c0 165 -88 230 -313 230c-226 0 -312 -63 -312 -230c0 -164 89 -228 312 -228h56l-85 86
l89 88l144 -144c73 32 109 98 109 198z" />
    <glyph glyph-name="R" unicode="R" 
d="M416 271h-228v-291h-125v708h371c280 0 420 -70 420 -209c0 -116 -89 -183 -268 -202l297 -297h-175zM729 479c0 56 -90 84 -269 84h-272v-167h320c147 0 221 28 221 83z" />
    <glyph glyph-name="S" unicode="S" horiz-adv-x="1000" 
d="M938 188c0 -94 -59 -156 -175 -187c-57 -14 -152 -21 -285 -21c-253 0 -373 41 -415 173l120 34c31 -66 117 -83 350 -83c186 0 280 28 280 84c0 61 -89 83 -336 83c-276 0 -414 69 -414 208c0 147 128 209 437 209c279 0 397 -43 437 -180l-120 -30
c-28 68 -118 85 -349 85c-187 0 -280 -28 -280 -84c0 -63 89 -83 327 -83c282 0 423 -70 423 -208z" />
    <glyph glyph-name="T" unicode="T" horiz-adv-x="792" 
d="M458 -20h-125v583h-333v125h792v-125h-334v-583z" />
    <glyph glyph-name="U" unicode="U" horiz-adv-x="875" 
d="M833 333c0 -248 -117 -353 -395 -353c-279 0 -396 105 -396 353v355h125v-355c0 -182 71 -229 271 -229c199 0 270 47 270 229v355h125v-355z" />
    <glyph glyph-name="V" unicode="V" horiz-adv-x="867" 
d="M374 -20l-409 708h142l326 -564l326 564h143l-409 -708h-119z" />
    <glyph glyph-name="W" unicode="W" horiz-adv-x="1219" 
d="M794 -20l-184 503l-185 -503h-128l-328 708h136l250 -537l195 537h119l195 -537l250 537h137l-329 -708h-128z" />
    <glyph glyph-name="X" unicode="X" horiz-adv-x="868" 
d="M434 246l-267 -266h-174l353 353l-353 355h174l267 -266l266 266h176l-355 -355l355 -353h-176z" />
    <glyph glyph-name="Y" unicode="Y" horiz-adv-x="743" 
d="M434 -20h-125v328l-378 380h174l267 -266l266 266h175l-379 -380v-328z" />
    <glyph glyph-name="Z" unicode="Z" horiz-adv-x="875" 
d="M42 93l579 470h-579v125h791v-115l-579 -469h579v-124h-791v113z" />
    <glyph glyph-name="bracketleft" unicode="[" horiz-adv-x="333" 
d="M63 771h208v-125h-83v-625h83v-124h-208v874z" />
    <glyph glyph-name="backslash" unicode="\" horiz-adv-x="447" 
d="M15 723l117 43l300 -821l-118 -43z" />
    <glyph glyph-name="bracketright" unicode="]" horiz-adv-x="333" 
d="M63 21h83v625h-83v125h208v-874h-208v124z" />
    <glyph glyph-name="asciicircum" unicode="^" horiz-adv-x="458" 
d="M83 458v92l146 117l146 -117v-92l-146 117z" />
    <glyph glyph-name="underscore" unicode="_" horiz-adv-x="500" 
d="M-20 87h541v-107h-541v107z" />
    <glyph glyph-name="grave" unicode="`" horiz-adv-x="563" 
d="M167 958l229 -116v-92l-229 117v91z" />
    <glyph glyph-name="a" unicode="a" horiz-adv-x="750" 
d="M563 19c-52 -26 -122 -39 -209 -39c-222 0 -333 90 -333 270c0 181 111 271 333 271c87 0 156 -13 209 -40v40h125v-541h-125v39zM563 250c0 111 -55 146 -209 146c-151 0 -208 -35 -208 -146s57 -146 208 -146s209 35 209 146z" />
    <glyph glyph-name="b" unicode="b" horiz-adv-x="750" 
d="M729 250c0 -180 -111 -270 -333 -270c-87 0 -157 13 -208 39v-39h-125v708h125v-207c52 27 121 40 208 40c222 0 333 -90 333 -271zM604 250c0 111 -57 146 -208 146c-154 0 -208 -35 -208 -146s57 -146 208 -146s208 35 208 146z" />
    <glyph glyph-name="c" unicode="c" horiz-adv-x="679" 
d="M667 126c-55 -97 -159 -146 -313 -146c-222 0 -333 90 -333 270c0 181 111 271 333 271c155 0 259 -49 313 -148l-114 -54c-34 57 -88 77 -199 77c-153 0 -208 -36 -208 -146c0 -111 57 -146 208 -146c112 0 164 20 199 76z" />
    <glyph glyph-name="d" unicode="d" horiz-adv-x="750" 
d="M563 19c-52 -26 -122 -39 -209 -39c-222 0 -333 90 -333 270c0 181 111 271 333 271c87 0 156 -13 209 -40v207h125v-708h-125v39zM563 250c0 111 -55 146 -209 146c-151 0 -208 -35 -208 -146s57 -146 208 -146s209 35 209 146z" />
    <glyph glyph-name="e" unicode="e" horiz-adv-x="708" 
d="M688 250c0 -15 -4 -52 -5 -62h-528c20 -61 77 -84 199 -84c109 0 161 20 198 74l113 -54c-55 -96 -159 -144 -311 -144c-222 0 -333 90 -333 270c0 181 111 271 333 271s334 -90 334 -271zM553 313c-22 65 -88 83 -199 83c-124 0 -179 -23 -199 -83h398z" />
    <glyph glyph-name="f" unicode="f" horiz-adv-x="476" 
d="M419 558c-23 3 -45 5 -65 5c-109 0 -125 -21 -125 -167h213v-125h-213v-291h-125v291h-83v125h83c0 132 13 185 61 232c41 40 104 60 189 60c29 0 65 -5 108 -13z" />
    <glyph glyph-name="g" unicode="g" horiz-adv-x="750" 
d="M688 0c0 -180 -112 -270 -334 -270c-154 0 -258 50 -312 148l113 53c36 -57 87 -76 199 -76c163 0 209 38 209 164c-52 -26 -122 -39 -209 -39c-222 0 -333 90 -333 270c0 181 111 271 333 271c87 0 156 -13 209 -40v40h125v-521zM563 250c0 111 -58 146 -209 146
s-208 -35 -208 -146s57 -146 208 -146s209 35 209 146z" />
    <glyph glyph-name="h" unicode="h" horiz-adv-x="771" 
d="M604 250c0 111 -57 146 -208 146s-208 -35 -208 -146v-270h-125v708h125v-207c52 27 121 40 208 40c222 0 333 -90 333 -271v-270h-125v270z" />
    <glyph glyph-name="i" unicode="i" horiz-adv-x="250" 
d="M63 521h125v-541h-125v541zM63 688h125v-125h-125v125z" />
    <glyph glyph-name="j" unicode="j" horiz-adv-x="393" 
d="M330 58c0 -165 -80 -244 -250 -244c-32 0 -68 4 -107 12l42 117c23 -3 29 -3 65 -4c92 0 120 21 125 100v482h125v-463zM205 688h125v-125h-125v125z" />
    <glyph glyph-name="k" unicode="k" horiz-adv-x="731" 
d="M188 169v-189h-125v708h125v-357l329 190h250l-470 -271l470 -270h-250z" />
    <glyph glyph-name="l" unicode="l" horiz-adv-x="250" 
d="M63 688h125v-708h-125v708z" />
    <glyph glyph-name="m" unicode="m" horiz-adv-x="979" 
d="M813 275c0 97 -25 121 -125 121c-102 0 -125 -23 -125 -121v-295h-125v295c0 98 -24 121 -125 121c-102 0 -125 -23 -125 -121v-295h-125v541h125v-20c31 13 73 20 125 20c84 0 147 -19 187 -58c40 39 103 58 188 58c170 0 250 -78 250 -246v-295h-125v295z" />
    <glyph glyph-name="n" unicode="n" horiz-adv-x="771" 
d="M604 250c0 111 -57 146 -208 146s-208 -35 -208 -146v-270h-125v541h125v-40c52 27 121 40 208 40c222 0 333 -90 333 -271v-270h-125v270z" />
    <glyph glyph-name="o" unicode="o" horiz-adv-x="708" 
d="M688 250c0 -180 -112 -270 -334 -270s-333 90 -333 270c0 181 111 271 333 271s334 -90 334 -271zM563 250c0 111 -58 146 -209 146c-153 0 -208 -36 -208 -146c0 -111 57 -146 208 -146s209 35 209 146z" />
    <glyph glyph-name="p" unicode="p" horiz-adv-x="750" 
d="M729 250c0 -180 -111 -270 -333 -270c-87 0 -157 13 -208 39v-205h-125v707h125v-40c52 27 121 40 208 40c222 0 333 -90 333 -271zM604 250c0 111 -57 146 -208 146s-208 -35 -208 -146s54 -146 208 -146c151 0 208 35 208 146z" />
    <glyph glyph-name="q" unicode="q" horiz-adv-x="750" 
d="M563 19c-52 -26 -122 -39 -209 -39c-222 0 -333 90 -333 270c0 181 111 271 333 271c87 0 156 -13 209 -40v40h125v-707h-125v205zM563 250c0 111 -58 146 -209 146s-208 -35 -208 -146s57 -146 208 -146c154 0 209 35 209 146z" />
    <glyph glyph-name="r" unicode="r" horiz-adv-x="700" 
d="M595 319c-37 57 -89 77 -199 77c-154 0 -208 -35 -208 -146v-270h-125v541h125v-40c51 27 120 40 208 40c154 0 258 -49 312 -148z" />
    <glyph glyph-name="s" unicode="s" horiz-adv-x="792" 
d="M729 146c0 -120 -99 -166 -323 -166c-213 0 -303 36 -341 124l114 52c28 -47 81 -49 238 -52c125 0 187 14 187 42s-74 42 -221 42c-214 0 -320 55 -320 166c0 121 99 167 351 167c181 0 264 -31 310 -120l-112 -53c-33 42 -69 46 -238 48c-124 0 -186 -14 -186 -42
s73 -41 220 -41c214 0 321 -56 321 -167z" />
    <glyph glyph-name="t" unicode="t" horiz-adv-x="500" 
d="M313 -20h-125v416h-167v125h167v167h125v-167h166v-125h-166v-416z" />
    <glyph glyph-name="u" unicode="u" horiz-adv-x="771" 
d="M583 19c-51 -26 -121 -39 -208 -39c-222 0 -333 90 -333 270v271h125v-271c0 -111 57 -146 208 -146s208 35 208 146v271h125v-541h-125v39z" />
    <glyph glyph-name="v" unicode="v" horiz-adv-x="673" 
d="M277 -20l-312 541h142l229 -396l230 396h143l-313 -541h-119z" />
    <glyph glyph-name="w" unicode="w" horiz-adv-x="924" 
d="M584 -20l-122 337l-122 -337h-121l-250 541h136l167 -359l132 359h117l131 -359l167 359h138l-252 -541h-121z" />
    <glyph glyph-name="x" unicode="x" horiz-adv-x="701" 
d="M351 163l-184 -183h-174l270 270l-270 271h174l184 -183l182 183h176l-271 -271l271 -270h-176z" />
    <glyph glyph-name="y" unicode="y" horiz-adv-x="673" 
d="M158 -186l106 186l-299 521h142l229 -396l230 396h143l-408 -707h-143z" />
    <glyph glyph-name="z" unicode="z" horiz-adv-x="750" 
d="M42 94l433 302h-433v125h666v-115l-433 -302h433v-124h-666v114z" />
    <glyph glyph-name="braceleft" unicode="{" horiz-adv-x="417" 
d="M250 -103c-59 0 -104 47 -104 103v208c0 39 -33 63 -83 63v125c50 0 83 24 83 62v209c0 58 45 104 104 104h104v-125h-83v-229c0 -35 -14 -62 -42 -84c28 -21 42 -48 42 -83v-229h83v-124h-104z" />
    <glyph glyph-name="bar" unicode="|" horiz-adv-x="250" 
d="M63 771h125v-874h-125v874z" />
    <glyph glyph-name="braceright" unicode="}" horiz-adv-x="417" 
d="M354 271c-51 0 -83 -24 -83 -63v-208c0 -58 -48 -103 -104 -103h-104v124h83v229c0 35 14 63 42 83c-28 21 -42 49 -42 84v229h-83v125h104c57 0 104 -47 104 -104v-209c0 -38 32 -62 83 -62v-125z" />
    <glyph glyph-name="asciitilde" unicode="~" horiz-adv-x="467" 
d="M383 583c-36 -44 -69 -66 -100 -66c-15 0 -32 11 -50 33s-34 33 -50 33c-31 0 -65 -22 -100 -66v83c35 44 68 67 100 67c16 0 32 -12 50 -34s35 -33 50 -33c31 0 65 22 100 67v-84z" />
    <glyph glyph-name="Adieresis" unicode="&#xc4;" horiz-adv-x="867" 
d="M687 104h-507l-73 -124h-142l409 708h119l409 -708h-143zM251 229h364l-182 313zM475 875h83v-83h-83v83zM308 875h84v-83h-84v83z" />
    <glyph glyph-name="Aring" unicode="&#xc5;" horiz-adv-x="867" 
d="M517 833c0 -45 -38 -83 -84 -83s-83 37 -83 83c0 47 37 84 83 84s84 -38 84 -84zM475 833c0 23 -20 42 -42 42c-23 0 -41 -18 -41 -42s17 -41 41 -41c23 0 42 19 42 41zM687 104h-507l-73 -124h-142l409 708h119l409 -708h-143zM251 229h364l-182 313z" />
    <glyph glyph-name="Eacute" unicode="&#xc9;" horiz-adv-x="833" 
d="M63 688h708v-125h-583v-167h583v-125h-583v-167h583v-124h-708v708zM301 842l230 116v-91l-230 -117v92z" />
    <glyph glyph-name="Ntilde" unicode="&#xd1;" 
d="M188 501v-521h-125v708h112l554 -523v523h125v-708h-112zM608 833c-35 -44 -69 -66 -100 -66c-15 0 -32 11 -50 33s-34 33 -50 33c-31 0 -65 -22 -100 -66v83c35 44 69 67 100 67c16 0 32 -12 50 -34s35 -33 50 -33c32 0 65 22 100 67v-84z" />
    <glyph glyph-name="Odieresis" unicode="&#xd6;" 
d="M896 333c0 -235 -146 -353 -438 -353c-291 0 -437 118 -437 353c0 236 146 355 437 355c292 0 438 -119 438 -355zM771 333c0 165 -88 230 -313 230c-226 0 -312 -63 -312 -230c0 -164 89 -229 312 -229c224 0 313 65 313 229zM500 875h83v-83h-83v83zM333 875h84v-83
h-84v83z" />
    <glyph glyph-name="Udieresis" unicode="&#xdc;" horiz-adv-x="875" 
d="M479 875h84v-83h-84v83zM313 875h83v-83h-83v83zM833 333c0 -248 -117 -353 -395 -353c-279 0 -396 105 -396 353v355h125v-355c0 -182 71 -229 271 -229c199 0 270 47 270 229v355h125v-355z" />
    <glyph glyph-name="aacute" unicode="&#xe1;" horiz-adv-x="750" 
d="M563 19c-52 -26 -122 -39 -209 -39c-222 0 -333 90 -333 270c0 181 111 271 333 271c87 0 156 -13 209 -40v40h125v-541h-125v39zM563 250c0 111 -55 146 -209 146c-151 0 -208 -35 -208 -146s57 -146 208 -146s209 35 209 146zM239 677l229 117v-92l-229 -117v92z" />
    <glyph glyph-name="agrave" unicode="&#xe0;" horiz-adv-x="750" 
d="M239 793l229 -116v-92l-229 117v91zM563 19c-52 -26 -122 -39 -209 -39c-222 0 -333 90 -333 270c0 181 111 271 333 271c87 0 156 -13 209 -40v40h125v-541h-125v39zM563 250c0 111 -55 146 -209 146c-151 0 -208 -35 -208 -146s57 -146 208 -146s209 35 209 146z" />
    <glyph glyph-name="acircumflex" unicode="&#xe2;" horiz-adv-x="750" 
d="M208 585v92l146 116l146 -116v-92l-146 117zM563 19c-52 -26 -122 -39 -209 -39c-222 0 -333 90 -333 270c0 181 111 271 333 271c87 0 156 -13 209 -40v40h125v-541h-125v39zM563 250c0 111 -55 146 -209 146c-151 0 -208 -35 -208 -146s57 -146 208 -146
s209 35 209 146z" />
    <glyph glyph-name="adieresis" unicode="&#xe4;" horiz-adv-x="750" 
d="M396 710h83v-84h-83v84zM229 710h84v-84h-84v84zM563 19c-52 -26 -122 -39 -209 -39c-222 0 -333 90 -333 270c0 181 111 271 333 271c87 0 156 -13 209 -40v40h125v-541h-125v39zM563 250c0 111 -55 146 -209 146c-151 0 -208 -35 -208 -146s57 -146 208 -146
s209 35 209 146z" />
    <glyph glyph-name="atilde" unicode="&#xe3;" horiz-adv-x="750" 
d="M563 19c-52 -26 -122 -39 -209 -39c-222 0 -333 90 -333 270c0 181 111 271 333 271c87 0 156 -13 209 -40v40h125v-541h-125v39zM563 250c0 111 -55 146 -209 146c-151 0 -208 -35 -208 -146s57 -146 208 -146s209 35 209 146zM504 669c-35 -45 -69 -67 -100 -67
c-15 0 -32 11 -50 33c-18 23 -34 34 -50 34c-31 0 -65 -22 -100 -67v84c35 44 69 66 100 66c16 0 32 -11 50 -33s35 -33 50 -33c32 0 65 22 100 66v-83z" />
    <glyph glyph-name="aring" unicode="&#xe5;" horiz-adv-x="750" 
d="M438 668c0 -46 -38 -83 -84 -83s-83 37 -83 83c0 47 37 83 83 83s84 -37 84 -83zM396 668c0 23 -20 42 -42 42c-23 0 -41 -18 -41 -42s17 -42 41 -42c23 0 42 19 42 42zM563 19c-52 -26 -122 -39 -209 -39c-222 0 -333 90 -333 270c0 181 111 271 333 271
c87 0 156 -13 209 -40v40h125v-541h-125v39zM563 250c0 111 -55 146 -209 146c-151 0 -208 -35 -208 -146s57 -146 208 -146s209 35 209 146z" />
    <glyph glyph-name="eacute" unicode="&#xe9;" horiz-adv-x="708" 
d="M688 250c0 -15 -4 -52 -5 -62h-528c20 -61 77 -84 199 -84c109 0 161 20 198 74l113 -54c-55 -96 -159 -144 -311 -144c-222 0 -333 90 -333 270c0 181 111 271 333 271s334 -90 334 -271zM553 313c-22 65 -88 83 -199 83c-124 0 -179 -23 -199 -83h398zM239 677l229 117
v-92l-229 -117v92z" />
    <glyph glyph-name="egrave" unicode="&#xe8;" horiz-adv-x="708" 
d="M239 793l229 -116v-92l-229 117v91zM688 250c0 -15 -4 -52 -5 -62h-528c20 -61 77 -84 199 -84c109 0 161 20 198 74l113 -54c-55 -96 -159 -144 -311 -144c-222 0 -333 90 -333 270c0 181 111 271 333 271s334 -90 334 -271zM553 313c-22 65 -88 83 -199 83
c-124 0 -179 -23 -199 -83h398z" />
    <glyph glyph-name="ecircumflex" unicode="&#xea;" horiz-adv-x="708" 
d="M208 585v92l146 116l146 -116v-92l-146 117zM688 250c0 -15 -4 -52 -5 -62h-528c20 -61 77 -84 199 -84c109 0 161 20 198 74l113 -54c-55 -96 -159 -144 -311 -144c-222 0 -333 90 -333 270c0 181 111 271 333 271s334 -90 334 -271zM553 313c-22 65 -88 83 -199 83
c-124 0 -179 -23 -199 -83h398z" />
    <glyph glyph-name="edieresis" unicode="&#xeb;" horiz-adv-x="708" 
d="M396 710h83v-84h-83v84zM229 710h84v-84h-84v84zM688 250c0 -15 -4 -52 -5 -62h-528c20 -61 77 -84 199 -84c109 0 161 20 198 74l113 -54c-55 -96 -159 -144 -311 -144c-222 0 -333 90 -333 270c0 181 111 271 333 271s334 -90 334 -271zM553 313c-22 65 -88 83 -199 83
c-124 0 -179 -23 -199 -83h398z" />
    <glyph glyph-name="iacute" unicode="&#xed;" horiz-adv-x="313" 
d="M43 677l229 116v-91l-229 -117v92zM94 521h125v-541h-125v541z" />
    <glyph glyph-name="igrave" unicode="&#xec;" horiz-adv-x="313" 
d="M43 793l229 -116v-92l-229 117v91zM94 521h125v-541h-125v541z" />
    <glyph glyph-name="icircumflex" unicode="&#xee;" horiz-adv-x="375" 
d="M43 585v92l146 116l146 -116v-92l-146 117zM125 521h125v-541h-125v541z" />
    <glyph glyph-name="idieresis" unicode="&#xef;" horiz-adv-x="333" 
d="M210 710h83v-84h-83v84zM43 710h83v-84h-83v84zM104 521h125v-541h-125v541z" />
    <glyph glyph-name="ntilde" unicode="&#xf1;" horiz-adv-x="771" 
d="M604 250c0 111 -57 146 -208 146s-208 -35 -208 -146v-270h-125v541h125v-40c52 27 121 40 208 40c222 0 333 -90 333 -271v-270h-125v270zM536 669c-36 -45 -69 -67 -100 -67c-15 0 -32 11 -50 33c-18 23 -34 34 -50 34c-32 0 -65 -22 -100 -67v84c35 44 68 66 100 66
c16 0 32 -11 50 -33s35 -33 50 -33c31 0 65 22 100 66v-83z" />
    <glyph glyph-name="oacute" unicode="&#xf3;" horiz-adv-x="708" 
d="M688 250c0 -180 -112 -270 -334 -270s-333 90 -333 270c0 181 111 271 333 271s334 -90 334 -271zM563 250c0 111 -58 146 -209 146c-153 0 -208 -36 -208 -146c0 -111 57 -146 208 -146s209 35 209 146zM239 677l229 117v-92l-229 -117v92z" />
    <glyph glyph-name="ograve" unicode="&#xf2;" horiz-adv-x="708" 
d="M239 793l229 -116v-92l-229 117v91zM688 250c0 -180 -112 -270 -334 -270s-333 90 -333 270c0 181 111 271 333 271s334 -90 334 -271zM563 250c0 111 -58 146 -209 146c-153 0 -208 -36 -208 -146c0 -111 57 -146 208 -146s209 35 209 146z" />
    <glyph glyph-name="ocircumflex" unicode="&#xf4;" horiz-adv-x="708" 
d="M208 585v92l146 116l146 -116v-92l-146 117zM688 250c0 -180 -112 -270 -334 -270s-333 90 -333 270c0 181 111 271 333 271s334 -90 334 -271zM563 250c0 111 -58 146 -209 146c-153 0 -208 -36 -208 -146c0 -111 57 -146 208 -146s209 35 209 146z" />
    <glyph glyph-name="odieresis" unicode="&#xf6;" horiz-adv-x="708" 
d="M396 710h83v-84h-83v84zM229 710h84v-84h-84v84zM688 250c0 -180 -112 -270 -334 -270s-333 90 -333 270c0 181 111 271 333 271s334 -90 334 -271zM563 250c0 111 -58 146 -209 146c-153 0 -208 -36 -208 -146c0 -111 57 -146 208 -146s209 35 209 146z" />
    <glyph glyph-name="otilde" unicode="&#xf5;" horiz-adv-x="708" 
d="M688 250c0 -180 -112 -270 -334 -270s-333 90 -333 270c0 181 111 271 333 271s334 -90 334 -271zM563 250c0 111 -58 146 -209 146c-153 0 -208 -36 -208 -146c0 -111 57 -146 208 -146s209 35 209 146zM504 669c-35 -45 -69 -67 -100 -67c-15 0 -32 11 -50 33
c-18 23 -34 34 -50 34c-31 0 -65 -22 -100 -67v84c35 44 69 66 100 66c16 0 32 -11 50 -33s35 -33 50 -33c32 0 65 22 100 66v-83z" />
    <glyph glyph-name="uacute" unicode="&#xfa;" horiz-adv-x="771" 
d="M583 19c-51 -26 -121 -39 -208 -39c-222 0 -333 90 -333 270v271h125v-271c0 -111 57 -146 208 -146s208 35 208 146v271h125v-541h-125v39zM271 677l229 117v-92l-229 -117v92z" />
    <glyph glyph-name="ugrave" unicode="&#xf9;" horiz-adv-x="771" 
d="M271 793l229 -116v-92l-229 117v91zM583 19c-51 -26 -121 -39 -208 -39c-222 0 -333 90 -333 270v271h125v-271c0 -111 57 -146 208 -146s208 35 208 146v271h125v-541h-125v39z" />
    <glyph glyph-name="ucircumflex" unicode="&#xfb;" horiz-adv-x="771" 
d="M239 585v92l146 116l146 -116v-92l-146 117zM583 19c-51 -26 -121 -39 -208 -39c-222 0 -333 90 -333 270v271h125v-271c0 -111 57 -146 208 -146s208 35 208 146v271h125v-541h-125v39z" />
    <glyph glyph-name="udieresis" unicode="&#xfc;" horiz-adv-x="771" 
d="M428 710h83v-84h-83v84zM261 710h83v-84h-83v84zM583 19c-51 -26 -121 -39 -208 -39c-222 0 -333 90 -333 270v271h125v-271c0 -111 57 -146 208 -146s208 35 208 146v271h125v-541h-125v39z" />
    <glyph glyph-name="dagger" unicode="&#x2020;" horiz-adv-x="500" 
d="M313 -186h-125v582h-125v125h125v167h125v-167h125v-125h-125v-582z" />
    <glyph glyph-name="degree" unicode="&#xb0;" horiz-adv-x="333" 
d="M250 583c0 -45 -38 -83 -83 -83c-47 0 -84 38 -84 83c0 47 37 84 84 84c45 0 83 -38 83 -84zM208 583c0 23 -19 42 -41 42c-24 0 -42 -18 -42 -42s18 -41 42 -41c22 0 41 19 41 41z" />
    <glyph glyph-name="cent" unicode="&#xa2;" horiz-adv-x="643" 
d="M588 303c-42 -76 -115 -117 -218 -123v-68h-74v68c-156 9 -233 83 -233 220c0 138 77 211 233 220v68h74v-68c103 -6 176 -48 218 -124l-97 -46c-24 38 -65 59 -121 62v-223c56 2 96 22 121 60zM296 512c-91 -5 -125 -36 -125 -112s35 -107 125 -111v223z" />
    <glyph glyph-name="bullet" unicode="&#x2022;" horiz-adv-x="625" 
d="M563 333c0 -136 -77 -187 -250 -187c-174 0 -250 51 -250 187s73 188 250 188c176 0 250 -55 250 -188z" />
    <glyph glyph-name="paragraph" unicode="&#xb6;" 
d="M771 -186h-125v749h-42v-749h-125v457c-288 0 -416 63 -416 208c0 139 139 209 419 209h372v-125h-83v-749z" />
    <glyph glyph-name="registered" unicode="&#xae;" 
d="M896 333c0 -235 -146 -353 -438 -353c-291 0 -437 118 -437 353c0 236 146 355 437 355c292 0 438 -119 438 -355zM771 333c0 165 -88 230 -313 230c-226 0 -312 -63 -312 -230c0 -164 89 -229 312 -229c96 0 210 22 224 42h-104l-145 146h-100v-146h-83v375h196
c147 0 221 -38 221 -115c0 -58 -41 -94 -123 -109l147 -145c53 36 80 96 80 181zM583 406c0 31 -31 32 -164 32h-86v-63h130c102 0 120 4 120 31z" />
    <glyph glyph-name="copyright" unicode="&#xa9;" 
d="M896 333c0 -235 -146 -353 -438 -353c-291 0 -437 118 -437 353c0 236 146 355 437 355c292 0 438 -119 438 -355zM771 333c0 165 -88 230 -313 230c-226 0 -312 -63 -312 -230c0 -164 89 -229 312 -229c224 0 313 65 313 229zM686 253c-40 -71 -113 -107 -218 -107
c-152 0 -229 62 -229 187s77 188 229 188c104 0 177 -36 217 -107l-74 -37c-25 40 -73 61 -143 61c-102 0 -146 -25 -146 -105c0 -75 40 -104 146 -104c76 0 116 17 142 60z" />
    <glyph glyph-name="trademark" unicode="&#x2122;" horiz-adv-x="961" 
d="M816 506l-112 -193h-72l-111 193v-193h-83v291h-125v-291h-84v291h-166v84h449l156 -271l157 271h74v-375h-83v193z" />
    <glyph glyph-name="acute" unicode="&#xb4;" horiz-adv-x="563" 
d="M167 842l229 116v-91l-229 -117v92z" />
    <glyph glyph-name="dieresis" unicode="&#xa8;" horiz-adv-x="583" 
d="M333 875h84v-83h-84v83zM167 875h83v-83h-83v83z" />
    <glyph glyph-name="AE" unicode="&#xc6;" horiz-adv-x="1521" 
d="M687 104h-507l-73 -124h-142l409 708h119l257 -445v445h708v-125h-583v-167h583v-125h-583v-167h583v-124h-699zM251 229h364l-182 313z" />
    <glyph glyph-name="Oslash" unicode="&#xd8;" 
d="M896 333c0 -235 -146 -353 -438 -353c-291 0 -437 118 -437 353c0 236 146 355 437 355c292 0 438 -119 438 -355zM578 555c-32 5 -72 8 -120 8c-226 0 -312 -63 -312 -230c0 -79 22 -137 67 -173zM771 333c0 80 -23 138 -68 174l-365 -395c34 -5 43 -6 120 -8
c224 0 313 65 313 229z" />
    <glyph glyph-name="plusminus" unicode="&#xb1;" horiz-adv-x="500" 
d="M304 146h-108v133h-133v109h133v133h108v-133h134v-109h-134v-133zM63 87h375v-107h-375v107z" />
    <glyph glyph-name="yen" unicode="&#xa5;" horiz-adv-x="743" 
d="M434 -20h-125v328l-378 380h174l267 -266l266 266h175l-379 -380v-328z" />
    <glyph glyph-name="ae" unicode="&#xe6;" horiz-adv-x="1250" 
d="M1229 250c0 -16 -4 -52 -5 -62h-527c22 -66 87 -84 199 -84c108 0 160 20 197 74l114 -54c-56 -96 -159 -144 -311 -144c-87 0 -157 13 -208 39v-39h-125v39c-52 -26 -122 -39 -209 -39c-222 0 -333 90 -333 270c0 181 111 271 333 271c87 0 156 -13 209 -40v40h125v-40
c51 27 120 40 208 40c222 0 333 -90 333 -271zM563 250c0 111 -55 146 -209 146c-151 0 -208 -35 -208 -146s57 -146 208 -146s209 35 209 146zM1095 313c-21 60 -78 83 -199 83c-123 0 -179 -23 -199 -83h398z" />
    <glyph glyph-name="oslash" unicode="&#xf8;" horiz-adv-x="708" 
d="M688 250c0 -180 -112 -270 -334 -270s-333 90 -333 270c0 181 111 271 333 271s334 -90 334 -271zM434 392c-20 3 -47 4 -80 4c-153 0 -208 -36 -208 -146c0 -30 4 -55 13 -74zM563 250c0 30 -5 55 -14 74l-275 -216c20 -3 46 -4 80 -4c151 0 209 35 209 146z" />
    <glyph glyph-name="questiondown" unicode="&#xbf;" horiz-adv-x="994" 
d="M937 -7c-39 -137 -157 -179 -446 -179c-314 0 -428 68 -428 207c0 93 52 155 156 185c52 15 142 23 271 23c159 0 239 28 239 84v41h125c0 -200 -85 -249 -431 -249c-157 0 -235 -28 -235 -84c0 -55 94 -83 282 -83c237 0 318 19 347 84zM729 521h125v-125h-125v125z" />
    <glyph glyph-name="exclamdown" unicode="&#xa1;" horiz-adv-x="250" 
d="M80 354h90l18 -540h-126zM63 521h125v-125h-125v125z" />
    <glyph glyph-name="guillemotleft" unicode="&#xab;" horiz-adv-x="492" 
d="M227 333l94 188h121l-94 -188l94 -187h-121zM60 333l94 188h121l-93 -188l93 -187h-121z" />
    <glyph glyph-name="guillemotright" unicode="&#xbb;" horiz-adv-x="492" 
d="M217 146l93 187l-93 188h120l95 -188l-95 -187h-120zM50 146l94 187l-94 188h121l94 -188l-94 -187h-121z" />
    <glyph glyph-name="ellipsis" unicode="&#x2026;" horiz-adv-x="500" 
d="M438 -20h-375v124h375v-124z" />
    <glyph glyph-name="Agrave" unicode="&#xc0;" horiz-adv-x="867" 
d="M687 104h-507l-73 -124h-142l409 708h119l409 -708h-143zM251 229h364l-182 313zM318 958l230 -116v-92l-230 117v91z" />
    <glyph glyph-name="Atilde" unicode="&#xc3;" horiz-adv-x="867" 
d="M583 833c-35 -44 -69 -66 -100 -66c-15 0 -32 11 -50 33c-17 22 -34 33 -50 33c-31 0 -65 -22 -100 -66v83c35 44 69 67 100 67c16 0 33 -12 50 -34c18 -22 35 -33 50 -33c32 0 65 22 100 67v-84zM687 104h-507l-73 -124h-142l409 708h119l409 -708h-143zM251 229h364
l-182 313z" />
    <glyph glyph-name="Otilde" unicode="&#xd5;" 
d="M896 333c0 -235 -146 -353 -438 -353c-291 0 -437 118 -437 353c0 236 146 355 437 355c292 0 438 -119 438 -355zM771 333c0 165 -88 230 -313 230c-226 0 -312 -63 -312 -230c0 -164 89 -229 312 -229c224 0 313 65 313 229zM608 833c-35 -44 -69 -66 -100 -66
c-15 0 -32 11 -50 33s-34 33 -50 33c-31 0 -65 -22 -100 -66v83c35 44 69 67 100 67c16 0 32 -12 50 -34s35 -33 50 -33c32 0 65 22 100 67v-84z" />
    <glyph glyph-name="OE" unicode="&#x152;" horiz-adv-x="1542" 
d="M771 54c-72 -49 -176 -74 -313 -74c-291 0 -437 118 -437 353c0 236 146 355 437 355c137 0 241 -26 313 -76v76h708v-125h-583v-167h583v-125h-583v-167h583v-124h-708v74zM771 333c0 165 -88 230 -313 230c-226 0 -312 -63 -312 -230c0 -164 89 -229 312 -229
c224 0 313 65 313 229z" />
    <glyph glyph-name="oe" unicode="&#x153;" horiz-adv-x="1250" 
d="M1229 250c0 -16 -4 -52 -5 -62h-527c22 -66 87 -84 199 -84c108 0 160 20 197 74l114 -54c-56 -96 -159 -144 -311 -144c-127 0 -217 29 -271 86c-54 -57 -144 -86 -271 -86c-222 0 -333 90 -333 270c0 181 111 271 333 271c127 0 217 -29 271 -87c54 58 144 87 271 87
c222 0 333 -90 333 -271zM563 250c0 111 -58 146 -209 146c-153 0 -208 -36 -208 -146c0 -111 57 -146 208 -146s209 35 209 146zM1095 313c-21 60 -78 83 -199 83c-123 0 -179 -23 -199 -83h398z" />
    <glyph glyph-name="endash" unicode="&#x2013;" horiz-adv-x="417" 
d="M63 388h291v-109h-291v109z" />
    <glyph glyph-name="emdash" unicode="&#x2014;" horiz-adv-x="667" 
d="M63 388h541v-109h-541v109z" />
    <glyph glyph-name="quotedblleft" unicode="&#x201c;" horiz-adv-x="408" 
d="M239 479l-21 209h130l-20 -209h-89zM81 479l-21 209h130l-21 -209h-88z" />
    <glyph glyph-name="quotedblright" unicode="&#x201d;" horiz-adv-x="408" 
d="M239 479l-21 209h130l-20 -209h-89zM81 479l-21 209h130l-21 -209h-88z" />
    <glyph glyph-name="quoteleft" unicode="&#x2018;" horiz-adv-x="250" 
d="M81 479l-21 209h130l-21 -209h-88z" />
    <glyph glyph-name="quoteright" unicode="&#x2019;" horiz-adv-x="250" 
d="M81 479l-21 209h130l-21 -209h-88z" />
    <glyph glyph-name="divide" unicode="&#xf7;" horiz-adv-x="500" 
d="M63 388h375v-109h-375v109zM196 254h108v-108h-108v108zM196 521h108v-108h-108v108z" />
    <glyph glyph-name="ydieresis" unicode="&#xff;" horiz-adv-x="673" 
d="M158 -186l106 186l-299 521h142l229 -396l230 396h143l-408 -707h-143zM378 710h83v-83h-83v83zM211 710h84v-83h-84v83z" />
    <glyph glyph-name="Ydieresis" unicode="&#x178;" horiz-adv-x="743" 
d="M413 875h83v-83h-83v83zM246 875h83v-83h-83v83zM434 -20h-125v328l-378 380h174l267 -266l266 266h175l-379 -380v-328z" />
    <glyph glyph-name="guilsinglleft" unicode="&#x2039;" horiz-adv-x="325" 
d="M60 333l94 188h121l-93 -188l93 -187h-121z" />
    <glyph glyph-name="guilsinglright" unicode="&#x203a;" horiz-adv-x="325" 
d="M50 146l94 187l-94 188h121l94 -188l-94 -187h-121z" />
    <glyph glyph-name="daggerdbl" unicode="&#x2021;" horiz-adv-x="500" 
d="M313 -186h-125v332h-125v125h125v125h-125v125h125v167h125v-167h125v-125h-125v-125h125v-125h-125v-332z" />
    <glyph glyph-name="periodcentered" unicode="&#xb7;" horiz-adv-x="250" 
d="M63 396h125v-125h-125v125z" />
    <glyph glyph-name="quotesinglbase" unicode="&#x201a;" horiz-adv-x="250" 
d="M81 -103l-21 207h130l-21 -207h-88z" />
    <glyph glyph-name="quotedblbase" unicode="&#x201e;" horiz-adv-x="408" 
d="M239 -103l-21 207h130l-20 -207h-89zM81 -103l-21 207h130l-21 -207h-88z" />
    <glyph glyph-name="perthousand" unicode="&#x2030;" horiz-adv-x="1249" 
d="M801 125c0 104 55 146 192 146c136 0 193 -43 193 -146s-56 -145 -193 -145c-133 0 -190 41 -192 137c-5 -98 -59 -137 -193 -137c-137 0 -192 42 -192 145c0 34 6 61 18 82l-235 -235l-88 87l637 637l88 -89l-363 -362c30 17 75 26 135 26c136 0 193 -43 193 -146z
M447 542c0 -103 -56 -146 -192 -146c-129 0 -192 39 -192 146c0 103 55 146 192 146c135 0 192 -44 192 -146zM331 548c0 16 -11 24 -34 24l-93 -1c-16 -2 -25 -7 -25 -16c0 -40 2 -43 32 -43h87c29 0 33 9 33 36zM1007 154h-65c-16 -1 -25 -7 -25 -16c0 -39 2 -43 33 -43
h87c21 0 32 8 32 23c0 36 0 36 -62 36zM622 154h-64c-17 -1 -25 -7 -25 -16c0 -39 1 -43 32 -43h87c21 0 32 8 32 23c0 35 0 36 -62 36z" />
    <glyph glyph-name="Acircumflex" unicode="&#xc2;" horiz-adv-x="867" 
d="M687 104h-507l-73 -124h-142l409 708h119l409 -708h-143zM251 229h364l-182 313zM287 750v92l146 116l146 -116v-92l-146 117z" />
    <glyph glyph-name="Ecircumflex" unicode="&#xca;" horiz-adv-x="833" 
d="M271 750v92l146 116l146 -116v-92l-146 117zM63 688h708v-125h-583v-167h583v-125h-583v-167h583v-124h-708v708z" />
    <glyph glyph-name="Aacute" unicode="&#xc1;" horiz-adv-x="867" 
d="M318 842l230 116v-91l-230 -117v92zM687 104h-507l-73 -124h-142l409 708h119l409 -708h-143zM251 229h364l-182 313z" />
    <glyph glyph-name="Edieresis" unicode="&#xcb;" horiz-adv-x="833" 
d="M63 688h708v-125h-583v-167h583v-125h-583v-167h583v-124h-708v708zM458 875h84v-83h-84v83zM292 875h83v-83h-83v83z" />
    <glyph glyph-name="Egrave" unicode="&#xc8;" horiz-adv-x="833" 
d="M301 958l230 -116v-92l-230 117v91zM63 688h708v-125h-583v-167h583v-125h-583v-167h583v-124h-708v708z" />
    <glyph glyph-name="Iacute" unicode="&#xcd;" horiz-adv-x="313" 
d="M43 842l229 116v-91l-229 -117v92zM94 688h125v-708h-125v708z" />
    <glyph glyph-name="Icircumflex" unicode="&#xce;" horiz-adv-x="375" 
d="M43 750v92l146 116l146 -116v-92l-146 117zM125 688h125v-708h-125v708z" />
    <glyph glyph-name="Idieresis" unicode="&#xcf;" horiz-adv-x="333" 
d="M210 875h83v-83h-83v83zM43 875h83v-83h-83v83zM104 688h125v-708h-125v708z" />
    <glyph glyph-name="Igrave" unicode="&#xcc;" horiz-adv-x="313" 
d="M43 958l229 -116v-92l-229 117v91zM94 688h125v-708h-125v708z" />
    <glyph glyph-name="Oacute" unicode="&#xd3;" 
d="M896 333c0 -235 -146 -353 -438 -353c-291 0 -437 118 -437 353c0 236 146 355 437 355c292 0 438 -119 438 -355zM771 333c0 165 -88 230 -313 230c-226 0 -312 -63 -312 -230c0 -164 89 -229 312 -229c224 0 313 65 313 229zM343 842l230 116v-91l-230 -117v92z" />
    <glyph glyph-name="Ocircumflex" unicode="&#xd4;" 
d="M313 750v92l145 116l146 -116v-92l-146 117zM896 333c0 -235 -146 -353 -438 -353c-291 0 -437 118 -437 353c0 236 146 355 437 355c292 0 438 -119 438 -355zM771 333c0 165 -88 230 -313 230c-226 0 -312 -63 -312 -230c0 -164 89 -229 312 -229c224 0 313 65 313 229
z" />
    <glyph glyph-name="Ograve" unicode="&#xd2;" 
d="M343 958l230 -116v-92l-230 117v91zM896 333c0 -235 -146 -353 -438 -353c-291 0 -437 118 -437 353c0 236 146 355 437 355c292 0 438 -119 438 -355zM771 333c0 165 -88 230 -313 230c-226 0 -312 -63 -312 -230c0 -164 89 -229 312 -229c224 0 313 65 313 229z" />
    <glyph glyph-name="Uacute" unicode="&#xda;" horiz-adv-x="875" 
d="M322 842l230 116v-91l-230 -117v92zM833 333c0 -248 -117 -353 -395 -353c-279 0 -396 105 -396 353v355h125v-355c0 -182 71 -229 271 -229c199 0 270 47 270 229v355h125v-355z" />
    <glyph glyph-name="Ucircumflex" unicode="&#xdb;" horiz-adv-x="875" 
d="M292 750v92l146 116l145 -116v-92l-145 117zM833 333c0 -248 -117 -353 -395 -353c-279 0 -396 105 -396 353v355h125v-355c0 -182 71 -229 271 -229c199 0 270 47 270 229v355h125v-355z" />
    <glyph glyph-name="Ugrave" unicode="&#xd9;" horiz-adv-x="875" 
d="M322 958l230 -116v-92l-230 117v91zM833 333c0 -248 -117 -353 -395 -353c-279 0 -396 105 -396 353v355h125v-355c0 -182 71 -229 271 -229c199 0 270 47 270 229v355h125v-355z" />
    <glyph glyph-name="circumflex" unicode="&#x2c6;" horiz-adv-x="625" 
d="M167 750v92l146 116l145 -116v-92l-145 117z" />
    <glyph glyph-name="tilde" unicode="&#x2dc;" horiz-adv-x="633" 
d="M467 833c-36 -44 -69 -66 -100 -66c-16 0 -32 11 -51 33c-17 22 -34 33 -49 33c-32 0 -65 -22 -100 -66v83c35 44 68 67 100 67c15 0 32 -12 49 -34c19 -22 35 -33 51 -33c31 0 64 22 100 67v-84z" />
    <glyph glyph-name="nonbreakingspace" unicode="&#xa0;" horiz-adv-x="417" 
 />
    <glyph glyph-name="dollar" unicode="$" horiz-adv-x="833" 
d="M771 217c0 -105 -89 -161 -267 -170v-67h-75v66h-25v-66h-75v67c-150 8 -239 56 -267 145l103 28c21 -40 76 -62 164 -65v126c-178 8 -266 64 -266 169c0 104 88 161 266 169v69h75v-67h25v67h75v-69c151 -8 240 -57 267 -149l-103 -26c-19 42 -73 65 -164 68v-126
c178 -9 267 -65 267 -169zM329 513c-105 -2 -158 -23 -158 -63s53 -61 158 -62v125zM663 217c0 40 -53 61 -159 62v-125c106 1 159 22 159 63zM404 513v-125h25v125h-25zM404 279v-126h25v126h-25z" />
    <glyph glyph-name="exclam" unicode="!" horiz-adv-x="250" 
d="M80 146l-18 542h126l-18 -542h-90zM63 104h125v-124h-125v124z" />
    <glyph glyph-name="quotedbl" unicode="&#x22;" horiz-adv-x="408" 
d="M239 479l-21 209h130l-20 -209h-89zM81 479l-21 209h130l-21 -209h-88z" />
    <glyph glyph-name="numbersign" unicode="#" horiz-adv-x="650" 
d="M448 163h-108l10 116h-75l-10 -116h-108l10 116h-104v109h113l7 74h-120v109h129l10 117h108l-10 -117h75l10 117h108l-10 -117h104v-109h-113l-7 -74h120v-109h-129zM284 388h75l7 74h-75z" />
    <glyph glyph-name="macron" unicode="&#xaf;" horiz-adv-x="500" 
d="M63 854h375v-108h-375v108z" />
    <glyph glyph-name="Scaron" unicode="&#x160;" horiz-adv-x="1000" 
d="M938 188c0 -94 -59 -156 -175 -187c-57 -14 -152 -21 -285 -21c-253 0 -373 41 -415 173l120 34c31 -66 117 -83 350 -83c186 0 280 28 280 84c0 61 -89 83 -336 83c-276 0 -414 69 -414 208c0 147 128 209 437 209c279 0 397 -43 437 -180l-120 -30
c-28 68 -118 85 -349 85c-187 0 -280 -28 -280 -84c0 -63 89 -83 327 -83c282 0 423 -70 423 -208zM354 867v91l146 -116l146 116v-91l-146 -117z" />
    <glyph glyph-name="scaron" unicode="&#x161;" horiz-adv-x="792" 
d="M250 702v91l146 -116l146 116v-91l-146 -117zM729 146c0 -120 -99 -166 -323 -166c-213 0 -303 36 -341 124l114 52c28 -47 81 -49 238 -52c125 0 187 14 187 42s-74 42 -221 42c-214 0 -320 55 -320 166c0 121 99 167 351 167c181 0 264 -31 310 -120l-112 -53
c-33 42 -69 46 -238 48c-124 0 -186 -14 -186 -42s73 -41 220 -41c214 0 321 -56 321 -167z" />
    <glyph glyph-name="brokenbar" unicode="&#xa6;" horiz-adv-x="250" 
d="M63 771h125v-417h-125v417zM63 313h125v-416h-125v416z" />
    <glyph glyph-name="Yacute" unicode="&#xdd;" horiz-adv-x="743" 
d="M434 -20h-125v328l-378 380h174l267 -266l266 266h175l-379 -380v-328zM256 842l229 116v-91l-229 -117v92z" />
    <glyph glyph-name="yacute" unicode="&#xfd;" horiz-adv-x="673" 
d="M222 677l229 116v-91l-229 -117v92zM158 -186l106 186l-299 521h142l229 -396l230 396h143l-408 -707h-143z" />
    <glyph glyph-name="multiply" unicode="&#xd7;" horiz-adv-x="450" 
d="M225 257l-94 -94l-77 76l94 94l-94 95l77 76l94 -94l94 94l77 -76l-94 -95l94 -94l-77 -76z" />
  </font>
</defs>
</svg>
